#TITLE:Desks Pencils Bottles;
#SUBTITLE:;
#ARTIST:Prefuse 73;
#TITLETRANSLIT:;
#SUBTITLETRANSLIT:;
#ARTISTTRANSLIT:;
#CREDIT:;
#BANNER:dpb.png;
#BACKGROUND:dbp-bg.PNG;
#LYRICSPATH:;
#CDTITLE:feelulol.PNG;
#MUSIC:dbp.mp3;
#OFFSET:-12.320;
#SAMPLESTART:136.000;
#SAMPLELENGTH:15.000;
#SELECTABLE:YES;
#BPMS:0.000=95.000;
#STOPS:;
#BGCHANGES:;
// cache tags:
#FIRSTBEAT:0.000;
#LASTBEAT:295.000;
#SONGFILENAME:Songs/Music V.I.P ^_^/Desks Pencils Bottles [iPatch]/dpb.sm;
#HASMUSIC:1;
#HASBANNER:1;
#MUSICLENGTH:201.252;
// end cache tags

//---------------dance-single - ----------------
#NOTES:
     dance-single:
     :
     Hard:
     12:
     1.000,1.000,1.000,0.497,1.000,1185.000,279.000,100.000,0.000,1.000:  // measure 1
0001
0000
0000
0000
0000
0000
0000
0000
0000
0000
0000
0000
0000
0000
0000
0000
0001
0000
0000
0000
0000
0000
0000
0000
0000
0000
0000
0000
0000
0000
0000
0000
0001
0000
0000
0000
0000
0000
0000
0000
0000
0000
0000
0000
0000
0000
0000
0000
0001
0000
0000
0000
0000
0000
0000
0000
0000
0000
0000
0000
0000
0000
0000
0000
0001
0000
0000
0000
0000
0000
0000
0000
0001
0000
0000
0000
0000
0000
0000
0000
0001
0000
0000
0000
0000
0000
0000
0000
0001
0000
0000
0000
0000
0000
0000
0000
0000
0000
0000
0000
0000
0000
0001
0000
0000
0000
0000
0000
0000
0000
0000
0000
0000
0000
0001
0000
0000
0000
0000
0000
0000
0000
0000
0000
0000
0000
0001
0000
0000
0000
0000
0000
0000
0000
0000
0000
0000
0000
0000
0000
0000
0000
0000
0000
0000
0000
0000
0000
0000
0000
0001
0000
0000
0000
0000
0000
0000
0000
0000
0000
0000
0000
0000
0000
0000
0000
0000
0000
0000
0000
0000
0000
0000
0000
0000
0000
0000
0000
0000
0000
0000
0000
0000
0000
0000
0000
0000
0000
0000
0000
0000
0000
,  // measure 2
1001
0000
0010
1000
0000
0000
0010
0000
1001
0000
0000
0000
1100
0000
0010
0001
0000
0000
0010
0100
0000
0000
0010
0000
0011
0000
0000
0000
1100
0000
0100
0010
,  // measure 3
0000
0000
1000
0100
0000
0000
0100
0000
0101
0000
0000
0000
1010
0000
1000
0100
0000
0000
0001
0010
0000
0000
1000
0000
1010
0000
0000
0000
0101
0000
0010
1000
,  // measure 4
0000
0000
1000
0100
0000
0000
0001
0000
0101
0000
0000
0000
1100
0000
0010
0001
0000
0000
0100
0010
0000
0000
0100
0000
0110
0000
0000
0000
0101
0000
0001
0010
,  // measure 5
0000
0000
1000
0010
0000
0000
0100
0000
1010
0000
0000
0000
1010
0000
0100
1000
0000
0000
0010
0001
0000
0000
1000
0000
0101
0000
0000
0000
1010
0000
0100
1010
,  // measure 6
0000
0000
0010
0101
0000
0000
0001
1100
0000
0000
1010
0110
0000
0000
1000
0100
0000
0000
0010
0001
0000
0000
0110
1100
0000
0000
0000
0000
1010
0000
0001
0010
,  // measure 7
0000
0000
1000
0100
0000
0000
1010
0101
0000
0000
0000
0000
0011
0100
1000
0000
0000
0000
1000
0100
0000
0000
0101
1010
0000
0000
0010
0001
0010
0100
1000
0000
,  // measure 8
0000
0000
0001
0010
0000
0000
0011
1100
0000
0000
0010
1000
0100
0010
0001
0000
0000
0000
1000
0100
0000
0000
1100
0011
0000
0000
0000
0000
1001
0000
0001
0010
,  // measure 9
0000
0000
1000
0100
0000
0000
0110
1001
0000
0000
0010
0100
0000
0000
1001
0110
0000
0000
0000
0000
1100
0000
0010
0001
0000
0000
1000
0100
0010
0001
1000
0100
,  // measure 10
1001
0000
1000
0100
0000
0000
0001
0010
0000
0000
1000
0100
0000
0000
0001
0020
0030
0000
1000
0200
0300
0000
0010
0002
0003
0000
1000
0020
0030
1000
0001
0020
,  // measure 11
0000
0000
1000
0100
0000
0000
0100
0001
0000
0000
0030
0000
2000
0000
0010
3100
0002
0000
0010
0100
0023
0000
1000
0001
0230
0000
0001
1000
0320
0000
1000
0100
,  // measure 12
0032
0000
0010
1000
0003
0000
0011
0110
0000
0000
0010
0100
0000
0000
0001
1000
0020
0000
0100
1000
0032
0000
1000
0100
2003
0000
0001
0100
3020
0000
0001
1000
,  // measure 13
2030
0000
0100
0010
3000
0000
0011
1010
0000
0000
0010
0100
2000
0000
0010
0001
3002
0000
0010
0100
0023
0000
1000
1000
0230
0000
0001
0001
2300
0000
0010
0001
,  // measure 14
3000
0000
1000
0100
0000
0000
1001
0110
0000
0000
0100
0010
0200
0000
0010
0001
0302
0000
0010
1000
2003
0000
0100
0010
3020
0000
0100
1000
2030
0000
0010
0001
,  // measure 15
3000
0000
0010
0001
0000
0000
1100
0101
0000
0000
1000
0100
0000
0000
0010
0100
2000
0000
0100
0010
3020
0000
0100
1000
2030
0000
0100
0010
3020
0000
1000
0100
,  // measure 16
0230
0000
0000
0000
0300
0000
1001
0110
0000
0000
0010
1000
0000
0000
1000
0100
0020
0000
0001
0100
2030
0000
0100
0010
3002
0000
0010
1000
0203
0000
1000
0010
,  // measure 17
0320
0000
0000
0000
0030
0000
1100
0101
0000
0000
0010
0100
0000
0000
0010
0001
0020
0000
1000
0100
2030
0000
0010
0001
3200
0000
0010
1000
0320
0000
0100
1000
,  // measure 18
2030
0000
0010
0001
3000
0000
0101
1010
0000
0000
1000
0100
0000
0000
0001
0010
0200
0000
1000
0010
0320
0000
0001
0100
0230
0000
1000
0010
0320
0000
0100
0001
,  // measure 19
0032
0000
0000
0000
0003
0000
1100
1100
0000
0000
0010
0001
0000
0000
1100
1000
0000
0000
0101
0010
1000
0100
0010
1001
0000
0000
0101
0010
0001
0010
0100
0000
,  // measure 20
0000
0000
0010
1000
0100
0010
1000
1001
0000
0000
1010
0001
1000
0100
0010
0000
0000
0000
0110
1000
0001
0100
0010
1001
0000
0000
0011
0010
0100
1000
0100
0000
,  // measure 21
0000
0000
1001
0100
1000
0100
1000
0011
0000
0000
1100
0010
0001
0010
1000
0000
0000
0000
0101
0010
0100
0010
0100
1010
0000
0000
0011
0010
0100
1000
0010
0000
,  // measure 22
0000
0000
0110
0001
0010
0100
1000
0110
0000
0000
0000
0000
0001
2020
3030
0000
0000
0000
0010
0202
0303
0000
1000
0001
0010
0000
0000
1000
0001
0010
1000
0001
,  // measure 23
0000
0000
1000
0100
0010
0001
0101
1010
0000
0000
1000
0100
0000
0001
0022
0033
0000
0000
0000
1000
0202
0303
1000
0110
0000
0001
0010
0100
1000
0001
0110
1001
,  // measure 24
0000
0000
1000
0100
0000
0000
1010
0101
0000
0000
1000
0100
0010
0202
0303
0000
0000
0010
2200
3300
0000
0000
0202
0313
1000
0100
0010
0001
0000
0000
0110
1100
,  // measure 25
0000
0000
1000
0100
0000
0000
1001
0110
0000
0000
0100
0010
0000
0100
0220
0330
0000
0000
0000
0010
0202
0303
0000
0000
1010
0000
0000
0000
0000
0000
0000
0000
,  // measure 26
1100
0000
0000
0001
0010
0001
0000
0000
0011
0000
0000
1000
0100
1000
0000
0000
0110
0000
0000
0010
0100
0010
0000
0000
1001
0000
0000
1000
0100
0001
0000
0000
,  // measure 27
0110
0000
0000
0001
0010
0100
0000
0000
1010
0000
0000
0100
0010
1000
0000
0000
0101
0000
0000
0001
1000
0010
0000
0000
0101
0000
0000
0001
0100
1000
0000
0000
,  // measure 28
0110
0000
0000
0010
0100
0010
0000
0000
1100
0000
0000
0100
0010
0001
0000
0000
0101
0000
0000
0001
0010
0001
0000
0000
0011
0000
0000
0100
1000
0100
0000
0000
,  // measure 29
1100
0000
0000
0100
0001
0010
0000
0000
0110
0000
0000
1000
0001
1000
0000
0000
1001
0000
0000
0010
1000
0001
0000
0000
0110
0000
0000
1000
0100
0010
0000
0000
,  // measure 30
1100
0000
0000
1000
0100
0010
0000
0000
0101
0000
0000
0010
0100
0010
0000
0000
0110
0000
0000
0001
0100
0001
0000
0000
1010
0000
0000
0100
0001
0100
0000
0000
,  // measure 31
1010
0000
0000
0100
0010
1000
0000
0000
0011
0000
0000
1000
0100
0010
0000
0000
0101
0000
0000
0010
0100
0010
0000
0000
1010
0000
0000
0001
0100
0010
0000
0000
,  // measure 32
0101
0000
0000
1000
0100
0010
0000
0000
0110
0000
0000
0001
0010
0100
0000
0000
1001
0000
0000
0010
1000
0100
0000
0000
0110
0000
0000
1000
0001
0100
0000
0000
,  // measure 33
0011
0000
0000
0010
0001
0010
0000
0000
1100
0000
0000
0100
1000
0100
0000
0000
0110
0000
0000
1000
0100
0001
0000
0000
0011
0000
0000
0010
0100
0010
0000
0000
,  // measure 34
1001
0000
1010
0101
0000
0000
0011
0110
0000
0000
0011
1100
0000
0000
1000
0200
0300
0000
0001
0200
0300
0000
1000
0020
0030
0000
1000
0001
0010
0100
1000
0100
,  // measure 35
0010
0000
1001
0110
0000
0000
0101
1010
0000
0000
1100
0110
0000
0000
0100
0020
0030
0000
1000
0200
0300
0000
0001
0020
0030
0000
1000
0100
1000
0010
0001
0010
,  // measure 36
0100
0000
1100
0011
0000
0000
0011
0110
0000
0000
0110
1010
0000
0000
1000
0200
0300
0000
0100
0020
0030
0000
0010
0002
0003
0000
1000
0010
0100
0001
0010
0100
,  // measure 37
1000
0000
0011
1100
0000
0000
1100
0011
0000
0000
0011
1100
0000
0000
0100
0020
0030
0000
0001
0200
0300
0000
1000
0020
0030
0000
0001
0100
0010
1000
0001
0010
,  // measure 38
0100
0000
1010
0101
0000
0000
0101
1010
0000
0000
1001
0110
0000
0000
1000
2000
3000
0000
0100
0200
0300
0000
0010
0020
0030
0000
0100
0001
0100
0010
1000
0010
,  // measure 39
0100
0000
1100
0110
0000
0000
0110
0011
0000
0000
0011
0110
0000
0000
0001
0200
0300
0000
0010
0002
0003
0000
0100
0020
0030
0000
0100
0010
0001
1000
0100
0010
,  // measure 40
0001
0000
1100
0101
0000
0000
0011
0110
0000
0000
0110
1010
0000
0000
0010
0200
0300
0000
0100
0020
0030
0000
0001
0020
0030
0000
1000
0100
0001
0010
1000
0100
,  // measure 41
0010
0000
0101
1010
0000
0000
1010
0101
0000
0000
1001
1100
0000
0000
0010
0200
0300
0000
0010
0200
0300
0000
0001
2000
3000
0000
0100
0010
0001
0010
0100
0010
,  // measure 42
0100
0000
0110
1001
0000
0000
1001
0110
0000
0000
1100
0011
0000
0000
0001
0200
0300
0000
1000
0020
0030
0000
0100
0002
0003
0000
0001
1000
0010
0100
0001
1000
,  // measure 43
0010
0000
0011
0101
0000
0000
0110
1010
0000
0000
0101
0011
0000
0000
0010
0200
0300
0000
0100
2000
3000
0000
0010
0002
0003
0000
0010
1000
0001
0100
0001
0010
,  // measure 44
0001
0000
0110
1001
0000
0000
0011
1001
0000
0000
1100
1001
0000
0000
1000
0200
0300
0000
0010
0002
0003
0000
0010
0200
0300
0000
1000
0001
0100
0010
1000
0001
,  // measure 45
0010
0000
0101
1010
0000
0000
1010
0110
0000
0000
1001
0110
0000
0000
0001
0020
0030
0000
0010
0200
0300
0000
0001
0020
0030
0000
0100
0001
0010
1000
0010
0001
,  // measure 46
0010
0000
1000
0100
0000
0000
0001
0100
0000
0000
0010
0100
0000
0000
1000
0100
0000
0000
0010
0001
0000
0000
0010
0100
0000
0000
0100
0010
0000
0000
0100
1000
,  // measure 47
0000
0000
0100
0010
0000
0000
1000
0100
0000
0000
0100
1000
0000
0000
0100
0010
0000
0000
0010
0001
0000
0000
0001
0010
0000
0000
0100
1000
0000
0000
0100
0010
,  // measure 48
0000
0000
1000
0100
0000
0000
0010
0001
0000
0000
0010
0100
0000
0000
0100
1000
0000
0000
1000
0100
0000
0000
0100
0010
0000
0000
0010
0001
0000
0000
0001
0010
,  // measure 49
1100
0101
1001
0000
0000
0011
1001
0000
,  // measure 50
1001
0100
0010
0001
0010
0100
0010
0001
0010
0100
1000
0100
1000
0100
0010
0001
0001
0010
0100
1000
0100
1000
0100
0010
0010
0000
0000
0000
0000
0000
0000
1000
,  // measure 51
0100
0000
0010
1000
0000
0000
0000
0000
0001
0000
0010
0100
0000
0000
0000
0000
1000
0100
0010
0001
0000
0000
0010
0100
1001
0000
0000
0000
0000
0000
0000
0100
,  // measure 52
0101
0000
0010
0001
0000
0000
0000
1000
1010
0000
0010
0001
0000
0000
0000
0010
0011
0000
0010
0100
0000
0000
0000
0100
1100
0000
0000
0000
0000
0000
0000
1000
,  // measure 53
1100
0000
0010
0001
0000
0000
0000
0000
1010
0000
0100
0010
0000
0000
0000
0000
1000
0100
0010
0001
0000
0000
1000
0100
1001
0000
0000
0000
0000
0000
0000
0100
,  // measure 54
0110
0000
0001
0010
0000
0000
0000
0001
0011
0000
1000
0100
0000
0000
0000
0010
1010
0000
0010
0100
0000
0000
0000
0100
0101
0000
0000
0000
0000
0000
0000
1000
,  // measure 55
0110
0000
0001
0010
0000
0000
0000
0010
1001
0000
1000
0100
0000
0000
0000
0000
1000
0100
0010
0001
0000
0000
0001
0100
0110
1000
0001
1000
0001
1000
0001
1000
,  // measure 56
0011
0000
0010
0100
0000
0000
0000
0100
0101
0000
1000
0100
0000
0000
0000
0001
0011
0000
0010
0100
0000
0000
0000
1000
0101
0000
0000
0000
0000
0000
0000
0010
,  // measure 57
1010
0000
0001
0010
0000
0000
0000
0010
0101
0000
0001
0100
0000
0000
0000
0000
0001
0010
0100
1000
0000
0000
0010
0001
1001
0000
0100
1000
0000
0000
0000
0010
,  // measure 58
1010
0000
0100
0010
0000
0000
0000
0001
0110
0000
1000
0100
0000
0000
0000
0100
1001
0000
0010
0001
0000
0000
0000
1000
1100
0000
1000
0100
0000
0000
0000
1001
,  // measure 59
1001
0000
0000
0000
0000
0000
0000
1000
0001
0000
0000
0000
1100
0000
0000
0000
0000
0000
0000
0000
0000
0000
0000
0001
0010
0000
0000
0000
1100
0000
0000
0000
,  // measure 60
0000
0000
0000
0000
0000
0000
0000
0010
0100
0000
0000
0000
1001
0000
0000
0000
0000
0000
0000
0000
0000
0000
0000
1000
0010
0000
0000
0000
0101
0000
0000
0000
,  // measure 61
0000
0000
0000
0000
0000
0000
0000
0010
0100
0000
0000
0000
0011
0000
0000
0000
0000
0000
0000
0000
0000
0000
0000
0100
0100
0000
0000
0000
0011
0000
0000
0000
,  // measure 62
0000
0000
0000
0000
0000
0000
0000
0001
0100
0000
0000
0000
1010
0000
0000
0000
0000
0000
0000
0000
0000
0000
0000
0100
0010
0000
0000
0000
0110
0000
0000
0000
,  // measure 63
0001
0010
0100
1000
0001
0010
0100
1000
0100
0000
0000
0000
0011
0000
0000
0000
0000
0000
0001
0000
1000
0000
0001
1000
0100
0000
0000
0000
0011
0000
0000
0000
,  // measure 64
1100
0000
0000
0000
0000
0000
0000
0010
0001
0000
0000
0000
1100
0000
0000
0000
0001
0000
1000
0000
0100
0000
0001
0010
0100
0000
0000
0000
0100
0000
0000
0000
,  // measure 65
1000
0100
0010
0001
1000
0100
0010
0001
0100
0000
0000
0000
1010
0000
0000
0000
0000
0000
0001
0000
1000
0000
0100
0001
0100
0000
0000
0000
0101
0000
0000
0000
,  // measure 66
0000
0000
0000
0000
0000
0000
0000
1000
0100
0000
0000
0000
1100
0000
0000
0000
1000
0000
0001
0000
1000
0000
0010
0100
0110
0000
0000
0000
0110
0000
0000
1000
,  // measure 67
0100
1000
0001
0010
0001
1000
0100
1000
0001
0000
0000
0000
1010
0000
0000
0000
0000
0000
1000
0000
0001
0000
0010
0100
0110
0000
0000
0000
1001
0000
0000
0000
,  // measure 68
0000
0000
0000
0000
0000
0000
0000
0001
1000
0000
0000
0000
0101
0000
0000
0000
1000
0000
0001
0000
1000
0000
0100
0010
0101
0000
0000
0000
1010
0000
0000
0000
,  // measure 69
1000
0010
0100
0001
0100
0010
1000
0100
1010
0000
0000
0000
1010
0000
0000
0000
0000
0000
0001
0000
1000
0000
0001
0010
1100
0000
0000
0000
0101
0000
0000
0000
,  // measure 70
0000
0000
0000
0000
0000
0000
0000
0010
0001
0000
0000
0000
1010
0000
0000
0000
0001
0000
1000
0000
0100
0000
0001
0010
0101
0000
0000
0000
1001
0000
0000
0000
,  // measure 71
0010
1000
0010
0100
0010
0001
0010
0100
1010
0000
0000
0000
0110
0000
0000
0000
0000
0000
0001
0000
0100
0000
1000
0100
0011
0000
0000
0000
1100
0000
0000
0000
,  // measure 72
0000
0000
0000
0000
0000
0000
0000
0010
0110
0000
0000
0000
1001
0000
0000
0000
0001
0000
1000
0000
0100
0000
0010
0001
0011
0000
0000
0000
0101
0000
0000
0000
,  // measure 73
0100
0001
0100
0010
0100
0001
0100
0010
0101
0000
0000
0000
1010
0000
0000
0000
0000
0000
0001
0000
1000
0000
1000
0100
0011
0000
0000
0000
1010
0000
0000
0000
,  // measure 74
0000
0000
0000
0000
0000
0000
0000
0010
0101
0000
0000
0000
1010
0000
0000
0000
0001
0000
1000
0000
0010
0000
0100
0010
1001
0000
0000
0000
0000
0000
0000
0000
;
